osu file format v14

[General]
AudioFilename: Pluto Relinquish.mp3
AudioLeadIn: 1500
PreviewTime: 33621
Countdown: 0
SampleSet: Normal
StackLeniency: 0.7
Mode: 0
LetterboxInBreaks: 1
WidescreenStoryboard: 1

[Editor]
Bookmarks: 52821
DistanceSpacing: 0.7
BeatDivisor: 2
GridSize: 4
TimelineZoom: 1

[Metadata]
Title:Pluto Relinquish
TitleUnicode:Pluto Relinquish
Artist:2MB
ArtistUnicode:2MB
Creator:Snow Note
Version:Expert
Source:Dance Dance Revolution SuperNOVA 2
Tags:7odoa DDR SN2 SuperNOVA2 U1-2MB[k] PROJECT NM SEQUENCE UNLIMITED Yuichi Asami 浅見祐一 Naoki Maeda 前田尚紀 ♇luto bemani electronic instrumental
BeatmapID:325060
BeatmapSetID:128351

[Difficulty]
HPDrainRate:5
CircleSize:4
OverallDifficulty:8
ApproachRate:9
SliderMultiplier:1.4
SliderTickRate:1

[Events]
//Background and Video events
0,0,"Pluto Relinquish-bg.png",0,0
//Break Periods
2,26621,28221
//Storyboard Layer 0 (Background)
//Storyboard Layer 1 (Fail)
//Storyboard Layer 2 (Pass)
//Storyboard Layer 3 (Foreground)
//Storyboard Sound Samples

[TimingPoints]
21,600,4,1,0,30,1,0
4221,75,4,1,0,45,1,0
4821,150,4,1,0,45,1,0
13821,75,4,1,0,45,1,0
14421,150,4,1,0,45,1,0
24021,600,4,1,0,45,1,0
24321,-100,4,1,0,5,0,0
28189,-100,4,1,0,30,0,0
33621,300,4,1,0,45,1,0
52821,600,4,1,0,30,1,0
61821,75,4,1,0,45,1,0
62421,150,4,1,0,25,1,0
64821,-100,4,1,0,30,0,0
67221,-100,4,1,0,35,0,0
71421,600,4,1,0,40,1,0
72021,150,4,1,0,40,1,0
76221,600,4,1,0,45,1,0
76821,150,4,1,0,45,1,0
76821,-100,4,1,0,45,0,0
81021,600,4,1,0,45,1,0
81621,150,4,1,0,50,1,1
90921,75,4,1,0,50,1,0
90996,-100,4,1,0,10,0,0

[Colours]
Combo1 : 0,255,0
Combo2 : 255,255,255
Combo3 : 0,255,255

[HitObjects]
224,288,21,6,0,L|340:280,1,105,12|0,0:0|0:0,0:0:0:0:
400,308,621,2,0,B|435:313|468:292|479:259|472:229,1,105,8|0,0:0|0:0,0:0:0:0:
460,176,1221,1,8,0:0:0:0:
400,224,1371,1,0,0:0:0:0:
304,120,1671,1,0,0:0:0:0:
240,80,1821,2,0,L|168:76,1,70,8|2,0:0|0:0,0:0:0:0:
44,216,2421,6,0,B|78:236|119:231|147:208,1,105,8|0,0:0|0:0,0:0:0:0:
200,160,3021,2,0,L|240:248,1,70,8|0,0:0|0:0,0:0:0:0:
228,223,3546,1,0,0:0:0:0:
228,223,3621,1,10,0:0:0:0:
224,300,3771,1,0,0:0:0:0:
280,352,3921,1,0,0:0:0:0:
352,340,4071,1,0,0:0:0:0:
392,280,4221,1,4,0:0:0:0:
413,82,4821,6,0,B|481:156|465:272|381:326,1,280,12|0,0:0|0:0,0:0:0:0:
256,264,5271,1,0,0:0:0:0:
130,326,5421,2,0,B|46:272|31:155|98:82,1,280,8|0,0:0|0:0,0:0:0:0:
228,28,5871,1,0,0:0:0:0:
352,192,6021,6,0,B|386:253|480:250|518:170|488:107|437:90,1,280,8|0,0:0|0:0,0:0:0:0:
256,108,6471,1,0,0:0:0:0:
160,192,6621,2,0,B|125:252|33:249|-5:170|25:107|75:90,1,280,8|2,0:0|0:0,0:0:0:0:
256,108,7071,1,0,0:0:0:0:
352,192,7221,6,0,B|378:238|371:293|341:331,1,140,12|0,0:0|0:0,0:0:0:0:
166,324,7521,2,0,B|138:283|138:232|160:193,1,140,,,0:0:0:0:
384,112,7821,2,0,B|435:127|468:170|474:218,1,140,8|0,0:0|0:0,0:0:0:0:
38,210,8121,2,0,B|47:161|83:125|127:112,1,140,,,0:0:0:0:
204,108,8346,1,0,0:0:0:0:
256,164,8421,5,8,0:0:0:0:
160,324,8571,1,0,0:0:0:0:
160,220,8721,1,0,0:0:0:0:
256,384,8871,1,0,0:0:0:0:
352,220,9021,1,8,0:0:0:0:
39,209,9321,5,0,0:0:0:0:
32,132,9396,1,0,0:0:0:0:
64,60,9471,1,0,0:0:0:0:
132,24,9546,1,0,0:0:0:0:
208,24,9621,6,0,B|284:36|304:112|304:112|468:112,1,280,12|0,0:0|0:0,0:0:0:0:
456,288,10071,1,0,0:0:0:0:
304,360,10221,2,0,B|228:348|208:272|208:272|44:272,1,280,8|0,0:0|0:0,0:0:0:0:
160,124,10671,1,0,0:0:0:0:
160,124,10821,5,8,0:0:0:0:
316,188,10971,1,0,0:0:0:0:
316,188,11271,1,0,0:0:0:0:
256,32,11421,2,0,B|327:-3|411:13|466:68|484:135,1,280,8|2,0:0|0:0,0:0:0:0:
200,376,12021,5,8,0:0:0:0:
148,316,12096,1,0,0:0:0:0:
136,240,12171,1,0,0:0:0:0:
172,172,12246,1,0,0:0:0:0:
244,148,12321,1,0,0:0:0:0:
56,296,12471,1,0,0:0:0:0:
272,344,12621,6,0,B|380:332|440:196|340:136,1,280,8|0,0:0|0:0,0:0:0:0:
128,40,13146,1,0,0:0:0:0:
128,40,13221,2,0,B|56:32|56:32|0:88,1,140,8|0,0:0|0:0,0:0:0:0:
200,112,13521,2,0,B|272:120|272:120|328:64,1,140,0|0,0:0|0:0,0:0:0:0:
76,192,13821,1,4,0:0:0:0:
76,192,14421,5,8,0:0:0:0:
164,300,14571,2,0,B|258:257|364:282|431:351,1,280,,,0:0:0:0:
396,212,15021,2,0,B|353:147|374:59|444:15|513:24,1,280,8|0,0:0|0:0,0:0:0:0:
284,160,15471,1,0,0:0:0:0:
200,48,15621,5,8,0:0:0:0:
120,164,15771,2,0,B|117:250|173:323|254:348|326:329,1,280,,,0:0:0:0:
160,384,16221,1,8,0:0:0:0:
160,384,16521,1,0,0:0:0:0:
256,236,16671,1,0,0:0:0:0:
120,164,16821,6,0,B|70:171|32:207|19:252,1,140,8|0,0:0|0:0,0:0:0:0:
392,220,17121,2,0,B|442:211|479:175|492:131,1,140,,,0:0:0:0:
179,76,17421,2,0,B|139:45|86:43|46:67,1,140,8|0,0:0|0:0,0:0:0:0:
332,307,17721,2,0,B|372:338|425:340|465:316,1,140,,,0:0:0:0:
500,248,17946,1,0,0:0:0:0:
500,248,18021,6,0,B|448:216|448:216|364:232,1,140,8|0,0:0|0:0,0:0:0:0:
156,356,18321,2,0,B|208:388|208:388|292:372,1,140,0|0,0:0|0:0,0:0:0:0:
256,136,18621,1,8,0:0:0:0:
36,352,18921,5,0,0:0:0:0:
28,276,18996,1,0,0:0:0:0:
20,200,19071,1,0,0:0:0:0:
12,124,19146,1,0,0:0:0:0:
4,48,19221,6,0,B|39:9|96:6|135:35,1,140,8|0,0:0|0:0,0:0:0:0:
256,208,19521,2,0,B|221:247|164:250|125:221,1,140,,,0:0:0:0:
256,68,19821,2,0,B|291:29|348:26|387:55,1,140,8|0,0:0|0:0,0:0:0:0:
508,228,20121,2,0,B|473:267|416:270|377:241,1,140,,,0:0:0:0:
492,144,20421,5,8,0:0:0:0:
504,348,20571,1,0,0:0:0:0:
392,132,20721,1,0,0:0:0:0:
375,335,20871,1,0,0:0:0:0:
292,104,21021,1,8,0:0:0:0:
247,303,21171,1,0,0:0:0:0:
199,64,21321,1,0,0:0:0:0:
126,255,21471,1,0,0:0:0:0:
344,240,21621,5,12,0:0:0:0:
344,240,21721,2,0,B|364:212|366:177|352:148,1,93.3333333333333,,,0:0:0:0:
126,254,21921,1,0,0:0:0:0:
126,254,22021,2,0,B|106:282|104:317|118:346,1,93.3333333333333,,,0:0:0:0:
236,144,22221,5,8,0:0:0:0:
236,144,22321,2,0,B|208:124|173:122|144:136,1,93.3333333333333,,,0:0:0:0:
250,362,22521,1,0,0:0:0:0:
250,362,22621,2,0,B|278:382|313:384|342:370,1,93.3333333333333,,,0:0:0:0:
458,337,22821,5,8,0:0:0:0:
489,297,22921,1,0,0:0:0:0:
506,249,23021,1,0,0:0:0:0:
506,197,23121,1,0,0:0:0:0:
487,149,23221,1,0,0:0:0:0:
448,113,23321,1,0,0:0:0:0:
397,99,23421,5,8,0:0:0:0:
359,160,23521,1,0,0:0:0:0:
296,195,23621,1,0,0:0:0:0:
224,198,23721,1,0,0:0:0:0:
161,162,23821,1,0,0:0:0:0:
121,101,23921,1,0,0:0:0:0:
116,31,24021,1,6,0:0:0:0:
256,192,24171,12,0,26421,0:0:0:0:
324,328,28821,6,0,L|478:350,1,140,4|0,0:0|0:0,0:0:0:0:
300,240,29721,1,0,0:0:0:0:
300,240,30021,2,0,L|454:262,1,140,,,0:0:0:0:
188,328,31221,6,0,L|34:350,1,140,,,0:0:0:0:
212,240,32121,1,0,0:0:0:0:
212,240,32421,2,0,L|58:262,1,140,,,0:0:0:0:
8,160,33321,1,0,0:0:0:0:
324,112,33621,6,0,B|351:104|378:108|400:120,1,70,6|0,0:0|0:0,0:0:0:0:
480,260,33921,2,0,B|453:268|426:264|404:252,1,70,0|0,0:0|0:0,0:0:0:0:
496,48,34221,2,0,B|511:72|514:99|507:123,1,70,0|0,0:0|0:0,0:0:0:0:
280,220,34521,1,0,0:0:0:0:
280,220,34671,6,0,B|237:208|209:170|209:126|227:93,2,140,,,0:0:0:0:
356,160,35421,2,0,L|364:88,1,70,8|0,0:0|0:0,0:0:0:0:
212,296,35721,2,0,L|220:368,1,70,8|0,0:0|0:0,0:0:0:0:
152,116,36021,6,0,B|125:109|99:111|75:120,1,70,4|0,0:0|0:0,0:0:0:0:
8,168,36321,1,0,0:0:0:0:
212,296,36471,2,0,B|239:303|265:301|289:292,1,70,,,0:0:0:0:
356,244,36771,1,0,0:0:0:0:
116,200,36921,2,0,B|109:227|111:253|120:277,1,70,,,0:0:0:0:
456,192,37221,6,0,B|472:168|472:139|460:116,1,70,2|0,0:0|0:0,0:0:0:0:
220,28,37521,2,0,B|197:44|184:68|183:94,1,70,,,0:0:0:0:
292,356,37821,2,0,B|314:339|326:314|328:289,1,70,,,0:0:0:0:
56,192,38121,2,0,B|40:216|40:245|52:268,1,70,,,0:0:0:0:
180,340,38421,6,0,L|188:264,1,70,6|0,0:0|0:0,0:0:0:0:
324,140,38721,2,0,L|332:216,1,70,0|0,0:0|0:0,0:0:0:0:
188,140,39021,1,0,0:0:0:0:
256,60,39171,1,0,0:0:0:0:
188,140,39321,1,0,0:0:0:0:
272,272,39471,6,0,B|308:307|366:303|396:264,1,140,,,0:0:0:0:
192,236,39921,1,0,0:0:0:0:
112,292,40071,1,0,0:0:0:0:
200,336,40221,1,0,0:0:0:0:
200,336,40371,1,0,0:0:0:0:
104,200,40521,2,0,L|24:208,1,70,0|0,0:0|0:0,0:0:0:0:
272,272,40821,5,8,0:0:0:0:
272,272,40971,2,0,L|348:280,1,70,0|8,0:0|0:0,0:0:0:0:
457,191,41271,1,0,0:0:0:0:
344,108,41421,2,0,B|315:99|287:105|264:120,1,70,,,0:0:0:0:
344,360,41721,2,0,B|373:369|401:363|424:348,1,70,,,0:0:0:0:
136,100,42021,6,0,B|107:108|86:129|77:155,1,70,6|0,0:0|0:0,0:0:0:0:
376,284,42321,2,0,B|404:274|424:253|434:228,1,70,,,0:0:0:0:
140,284,42621,2,0,B|133:312|141:340|160:360,1,70,,,0:0:0:0:
372,100,42921,2,0,B|379:72|371:44|352:24,1,70,,,0:0:0:0:
256,332,43221,6,0,B|276:349|301:355|324:352,1,70,6|0,0:0|0:0,0:0:0:0:
256,192,43521,1,0,0:0:0:0:
188,260,43671,1,0,0:0:0:0:
324,268,43821,2,0,L|400:252,1,70,,,0:0:0:0:
256,104,44121,1,0,0:0:0:0:
164,156,44271,6,0,B|107:169|52:144|21:101,2,140,,,0:0:0:0:
352,52,45021,2,0,B|409:39|464:64|495:107,1,140,,,0:0:0:0:
452,192,45471,1,0,0:0:0:0:
488,292,45621,6,0,L|496:368,1,70,12|0,0:0|0:0,0:0:0:0:
384,304,45921,1,8,0:0:0:0:
300,368,46071,1,0,0:0:0:0:
212,312,46221,2,0,B|167:284|110:295|77:331,1,140,,,0:0:0:0:
452,192,46821,5,2,0:0:0:0:
456,96,46971,1,0,0:0:0:0:
376,152,47121,1,0,0:0:0:0:
347,51,47271,1,0,0:0:0:0:
288,140,47421,1,0,0:0:0:0:
220,52,47571,1,0,0:0:0:0:
204,158,47721,1,0,0:0:0:0:
104,96,47871,1,0,0:0:0:0:
136,212,48021,6,0,B|140:249|128:284,1,70,6|0,0:0|0:0,0:0:0:0:
28,312,48321,1,0,0:0:0:0:
28,312,48471,1,0,0:0:0:0:
280,364,48621,2,0,L|356:352,1,70,,,0:0:0:0:
424,276,48921,1,0,0:0:0:0:
276,260,49071,6,0,B|237:228|228:174|251:133,2,140,,,0:0:0:0:
368,208,49821,1,8,0:0:0:0:
188,40,50121,1,8,0:0:0:0:
92,32,50271,1,0,0:0:0:0:
24,100,50421,6,0,B|13:125|14:153|24:176,1,70,4|0,0:0|0:0,0:0:0:0:
248,228,50721,2,0,B|259:203|258:175|248:152,1,70,0|0,0:0|0:0,0:0:0:0:
112,252,51021,2,0,B|101:277|102:305|112:328,1,70,,,0:0:0:0:
336,380,51321,1,0,0:0:0:0:
432,308,51471,1,2,0:0:0:0:
448,192,51621,5,2,0:0:0:0:
160,52,51921,1,2,0:0:0:0:
256,356,52221,1,2,0:0:0:0:
256,356,52371,1,0,0:0:0:0:
256,356,52521,1,0,0:0:0:0:
240,192,52821,5,14,0:0:0:0:
248,160,52896,1,0,0:0:0:0:
256,128,52971,1,2,0:0:0:0:
264,96,53046,1,0,0:0:0:0:
272,64,53121,1,2,0:0:0:0:
392,204,53421,2,0,B|411:237|407:276|384:303,1,105,8|0,0:0|0:0,0:0:0:0:
436,356,54021,2,0,L|482:357,1,35,8|0,0:0|0:0,0:0:0:0:
256,272,54471,1,0,0:0:0:0:
192,312,54621,2,0,L|116:304,1,70,8|2,0:0|0:0,0:0:0:0:
24,192,55221,5,8,0:0:0:0:
56,184,55296,1,0,0:0:0:0:
88,176,55371,1,0,0:0:0:0:
120,168,55446,1,0,0:0:0:0:
152,160,55521,1,0,0:0:0:0:
232,192,55671,1,0,0:0:0:0:
304,144,55821,1,8,0:0:0:0:
304,144,55971,2,0,L|312:72,1,70,,,0:0:0:0:
360,232,56421,2,0,L|320:240,1,35,8|0,0:0|0:0,0:0:0:0:
416,152,56721,2,0,L|456:160,1,35,,,0:0:0:0:
504,256,57021,1,8,0:0:0:0:
360,344,57321,1,8,0:0:0:0:
328,352,57396,1,0,0:0:0:0:
296,360,57471,1,0,0:0:0:0:
264,368,57546,1,0,0:0:0:0:
232,376,57621,5,14,0:0:0:0:
200,360,57696,1,0,0:0:0:0:
168,344,57771,1,2,0:0:0:0:
136,328,57846,1,0,0:0:0:0:
104,312,57921,2,0,L|48:328,1,35,2|0,0:0|0:0,0:0:0:0:
16,264,58221,2,0,B|0:228|8:188|32:160,1,105,8|0,0:0|0:0,0:0:0:0:
104,144,58821,1,8,0:0:0:0:
104,144,58971,2,0,L|184:160,1,70,,,0:0:0:0:
248,144,59421,2,0,L|328:128,1,70,8|2,0:0|0:0,0:0:0:0:
316,130,60021,6,0,L|424:136,1,105,8|0,0:0|0:0,0:0:0:0:
496,160,60621,1,8,0:0:0:0:
392,256,60921,1,0,0:0:0:0:
488,352,61146,1,0,0:0:0:0:
488,352,61221,2,0,L|496:312,1,35,8|0,0:0|0:0,0:0:0:0:
416,336,61521,2,0,L|408:376,1,35,,,0:0:0:0:
336,344,61821,1,4,0:0:0:0:
336,344,62421,5,12,0:0:0:0:
200,368,62721,1,0,0:0:0:0:
176,232,63021,1,8,0:0:0:0:
312,208,63321,1,0,0:0:0:0:
120,304,63621,5,8,0:0:0:0:
104,112,63921,1,0,0:0:0:0:
296,96,64221,1,8,0:0:0:0:
312,288,64521,1,0,0:0:0:0:
88,224,64821,5,8,0:0:0:0:
224,24,65121,1,0,0:0:0:0:
424,160,65421,1,8,0:0:0:0:
288,360,65721,1,0,0:0:0:0:
48,80,66021,5,8,0:0:0:0:
352,16,66321,1,0,0:0:0:0:
464,304,66621,1,8,0:0:0:0:
160,368,66921,1,0,0:0:0:0:
136,56,67221,6,0,B|163:13|215:-3|260:13,1,140,8|0,0:0|0:0,0:0:0:0:
433,156,67521,2,0,B|456:201|444:254|408:284,1,140,,,0:0:0:0:
198,363,67821,2,0,B|147:360|108:323|98:277,1,140,8|0,0:0|0:0,0:0:0:0:
128,48,68121,2,0,B|155:5|207:-11|252:5,1,140,,,0:0:0:0:
320,36,68346,1,0,0:0:0:0:
300,112,68421,6,0,B|273:158|290:215|335:240,1,140,8|0,0:0|0:0,0:0:0:0:
496,308,68721,2,0,B|450:281|393:298|368:343,1,140,,,0:0:0:0:
212,368,69021,2,0,B|163:382|114:360|89:321,1,140,8|0,0:0|0:0,0:0:0:0:
68,248,69246,1,0,0:0:0:0:
144,268,69321,2,0,B|194:277|241:255|268:217,1,140,,,0:0:0:0:
292,144,69546,1,0,0:0:0:0:
268,71,69621,6,0,B|239:31|191:13|146:21,1,140,8|0,0:0|0:0,0:0:0:0:
68,248,69921,2,0,B|63:304|100:353|151:368,1,140,,,0:0:0:0:
444,248,70221,2,0,B|449:304|412:353|361:368,1,140,8|0,0:0|0:0,0:0:0:0:
80,248,70521,2,0,B|75:304|112:353|163:368,1,140,,,0:0:0:0:
356,272,70821,5,8,0:0:0:0:
192,168,70971,1,0,0:0:0:0:
256,356,71121,1,0,0:0:0:0:
320,168,71271,1,0,0:0:0:0:
158,272,71421,2,0,L|92:296,1,70,,,0:0:0:0:
92,296,72021,5,12,0:0:0:0:
16,212,72171,1,0,0:0:0:0:
44,104,72321,1,0,0:0:0:0:
152,68,72471,1,0,0:0:0:0:
244,132,72621,5,8,0:0:0:0:
248,244,72771,1,0,0:0:0:0:
340,308,72921,1,0,0:0:0:0:
444,272,73071,1,0,0:0:0:0:
468,164,73221,5,8,0:0:0:0:
460,52,73371,1,0,0:0:0:0:
384,188,73521,1,0,0:0:0:0:
376,76,73671,1,0,0:0:0:0:
296,208,73821,5,8,0:0:0:0:
296,208,73896,1,0,0:0:0:0:
288,96,74046,1,0,0:0:0:0:
288,96,74121,1,0,0:0:0:0:
196,160,74271,5,0,0:0:0:0:
196,160,74346,1,0,0:0:0:0:
196,160,74421,1,8,0:0:0:0:
224,284,74571,1,0,0:0:0:0:
296,208,74721,1,0,0:0:0:0:
296,208,74871,1,0,0:0:0:0:
140,232,75021,5,8,0:0:0:0:
256,372,75171,1,0,0:0:0:0:
360,260,75321,1,0,0:0:0:0:
360,260,75471,1,0,0:0:0:0:
256,104,75621,5,8,0:0:0:0:
224,284,75771,1,0,0:0:0:0:
408,184,75921,1,0,0:0:0:0:
408,184,76071,1,0,0:0:0:0:
169,163,76221,2,0,B|144:161|121:169|104:184,1,70,8|0,0:0|0:0,0:0:0:0:
104,184,76821,5,12,0:0:0:0:
76,320,76971,1,0,0:0:0:0:
212,348,77121,1,0,0:0:0:0:
240,212,77271,1,0,0:0:0:0:
112,160,77421,5,8,0:0:0:0:
163,317,77571,1,0,0:0:0:0:
321,265,77721,1,0,0:0:0:0:
268,106,77871,1,0,0:0:0:0:
112,160,78021,5,8,0:0:0:0:
256,312,78171,1,0,0:0:0:0:
400,160,78321,1,0,0:0:0:0:
256,8,78471,1,0,0:0:0:0:
156,256,78621,5,8,0:0:0:0:
156,256,78696,1,0,0:0:0:0:
356,256,78846,1,0,0:0:0:0:
356,256,78921,1,0,0:0:0:0:
256,88,79071,1,0,0:0:0:0:
256,88,79146,1,0,0:0:0:0:
256,88,79221,5,8,0:0:0:0:
256,312,79371,1,0,0:0:0:0:
400,160,79521,1,0,0:0:0:0:
400,160,79671,1,0,0:0:0:0:
256,192,79821,5,8,0:0:0:0:
480,192,79971,1,0,0:0:0:0:
328,48,80121,1,0,0:0:0:0:
328,48,80271,1,0,0:0:0:0:
400,264,80421,5,8,0:0:0:0:
460,60,80571,1,0,0:0:0:0:
256,192,80721,1,0,0:0:0:0:
256,192,80871,1,0,0:0:0:0:
189,326,81021,6,0,B|210:339|234:342|256:336,1,70,8|0,0:0|0:0,0:0:0:0:
256,336,81621,5,12,0:0:0:0:
207,333,81696,1,0,0:0:0:0:
158,342,81771,1,0,0:0:0:0:
113,362,81846,1,0,0:0:0:0:
65,356,81921,1,0,0:0:0:0:
24,328,81996,1,0,0:0:0:0:
9,281,82071,1,0,0:0:0:0:
13,232,82146,1,0,0:0:0:0:
39,190,82221,5,8,0:0:0:0:
84,171,82296,1,0,0:0:0:0:
132,176,82371,1,0,0:0:0:0:
172,203,82446,1,0,0:0:0:0:
218,216,82521,1,0,0:0:0:0:
266,207,82596,1,0,0:0:0:0:
302,174,82671,1,0,0:0:0:0:
319,124,82746,1,0,0:0:0:0:
309,75,82821,5,8,0:0:0:0:
172,104,82971,1,0,0:0:0:0:
412,164,83121,1,0,0:0:0:0:
224,24,83271,1,0,0:0:0:0:
460,240,83421,6,0,B|502:215|518:162|498:116|461:93,1,140,8|0,0:0|0:0,0:0:0:0:
368,240,83721,1,0,0:0:0:0:
364,268,83796,1,0,0:0:0:0:
360,296,83871,1,0,0:0:0:0:
356,324,83946,1,0,0:0:0:0:
352,352,84021,5,8,0:0:0:0:
304,364,84096,1,0,0:0:0:0:
256,352,84171,1,0,0:0:0:0:
221,316,84246,1,0,0:0:0:0:
207,268,84321,1,0,0:0:0:0:
215,219,84396,1,0,0:0:0:0:
252,187,84471,1,0,0:0:0:0:
298,171,84546,1,0,0:0:0:0:
346,166,84621,5,8,0:0:0:0:
382,132,84696,1,0,0:0:0:0:
394,84,84771,1,0,0:0:0:0:
378,37,84846,1,0,0:0:0:0:
338,8,84921,1,0,0:0:0:0:
289,9,84996,1,0,0:0:0:0:
248,36,85071,1,0,0:0:0:0:
207,62,85146,1,0,0:0:0:0:
158,55,85221,5,8,0:0:0:0:
36,150,85371,1,0,0:0:0:0:
189,157,85521,1,0,0:0:0:0:
5,48,85671,1,0,0:0:0:0:
316,88,85821,6,0,L|468:68,1,140,8|0,0:0|0:0,0:0:0:0:
496,224,86121,2,0,B|500:264|500:264|484:296,3,70,,,0:0:0:0:
428,340,86421,5,8,0:0:0:0:
387,367,86496,1,0,0:0:0:0:
339,378,86571,1,0,0:0:0:0:
290,369,86646,1,0,0:0:0:0:
247,344,86721,1,0,0:0:0:0:
218,303,86796,1,0,0:0:0:0:
210,254,86871,1,0,0:0:0:0:
227,208,86946,1,0,0:0:0:0:
265,177,87021,5,8,0:0:0:0:
313,169,87096,1,0,0:0:0:0:
359,184,87171,1,0,0:0:0:0:
397,214,87246,1,0,0:0:0:0:
445,219,87321,1,0,0:0:0:0:
488,197,87396,1,0,0:0:0:0:
509,152,87471,1,0,0:0:0:0:
504,103,87546,1,0,0:0:0:0:
470,66,87621,5,8,0:0:0:0:
422,54,87696,1,0,0:0:0:0:
376,71,87771,1,0,0:0:0:0:
330,89,87846,1,0,0:0:0:0:
281,97,87921,1,0,0:0:0:0:
232,87,87996,1,0,0:0:0:0:
191,59,88071,1,0,0:0:0:0:
144,43,88146,1,0,0:0:0:0:
95,48,88221,5,8,0:0:0:0:
52,72,88296,1,0,0:0:0:0:
22,111,88371,1,0,0:0:0:0:
10,158,88446,1,0,0:0:0:0:
15,206,88521,1,0,0:0:0:0:
48,241,88596,1,0,0:0:0:0:
94,255,88671,1,0,0:0:0:0:
140,239,88746,1,0,0:0:0:0:
169,199,88821,5,8,0:0:0:0:
169,150,88896,1,0,0:0:0:0:
183,103,88971,1,0,0:0:0:0:
217,68,89046,1,0,0:0:0:0:
264,55,89121,1,0,0:0:0:0:
311,65,89196,1,0,0:0:0:0:
345,99,89271,1,0,0:0:0:0:
362,144,89346,1,0,0:0:0:0:
354,192,89421,5,8,0:0:0:0:
322,229,89496,1,0,0:0:0:0:
276,246,89571,1,0,0:0:0:0:
256,290,89646,1,0,0:0:0:0:
267,337,89721,1,0,0:0:0:0:
307,364,89796,1,0,0:0:0:0:
355,359,89871,1,0,0:0:0:0:
390,325,89946,1,0,0:0:0:0:
438,320,90021,5,2,0:0:0:0:
258,138,90321,1,2,0:0:0:0:
74,320,90621,1,2,0:0:0:0:
258,138,90921,1,4,0:0:0:0:
256,192,90958,12,0,93321,0:0:0:0:
